#TITLE:Storm over the ocean ( SHD );
#SUBTITLE:;
#ARTIST:Beautiful day - steps by \;
#TITLETRANSLIT:;
#SUBTITLETRANSLIT:;
#ARTISTTRANSLIT:;
#CREDIT:;
#BANNER:storm.PNG;
#BACKGROUND:storm - bg.PNG;
#LYRICSPATH:;
#CDTITLE:;
#MUSIC:Storm over the ocean ( SHD ).mp3;
#OFFSET:0.000;
#SAMPLESTART:100.000;
#SAMPLELENGTH:12.000;
#SELECTABLE:YES;
#BPMS:0.000=140.000,72.000=280.000,232.000=100.000,300.833=280.000,301.000=280.000;
#STOPS:;
#BGCHANGES:;
// cache tags:
#FIRSTBEAT:8.500;
#LASTBEAT:487.000;
#SONGFILENAME:Songs/New Folder/Storm over the ocean ( SHD )/Storm over the ocean ( SHD ).sm;
#HASMUSIC:1;
#HASBANNER:1;
#MUSICLENGTH:157.105;
// end cache tags

//---------------dance-single - Master Mode----------------
#NOTES:
     dance-single:
     Master Mode:
     Challenge:
     13:
     1.000,1.000,0.942,1.000,1.000,1308.000,148.000,238.000,194.000,166.000:

0000
0000
0000
0000
,
0000
0000
0000
0000
,
0000
0002
0000
0000
0000
0020
0003
0000
,
0000
0200
0030
0000
0000
2300
0000
0000
,
0000
0200
3000
0000
0000
0020
0300
0000
,
0000
0032
0000
2000
0000
0023
0000
3000
,
0000
0000
0032
1000
0100
0010
1000
0100
0010
0000
0023
0100
1000
0001
0100
1000
,
0001
0100
1230
0000
0010
0001
1000
0000
0010
0001
2310
0100
0010
0001
0100
0010
,
0001
0100
3210
0001
1000
0010
0001
1000
0010
0001
2310
0001
0010
0100
0010
0001
,
0010
0000
0100
0000
3210
0000
0001
0000
1000
0000
0010
0000
0001
0000
1000
0000
0010
0000
0001
0000
1320
0000
0000
0000
1000
0001
1000
0001
1000
0001
1000
0000
,
0000
0000
0000
2030
0100
0010
0001
0010
0001
0010
0100
0010
0001
0010
0100
0010
0100
0010
3100
1000
0100
0012
1000
0100
,
0010
0100
1000
0203
0010
0000
0001
0010
1000
0010
0001
1000
0301
0010
0100
1020
0100
1000
0100
0001
0100
1000
0100
0001
,
0100
1000
0100
2031
0010
0100
0010
0001
0010
0100
0001
0010
0100
0000
0010
0001
0020
0130
0010
0001
0010
0100
0010
0100
,
3010
0100
1000
0102
0010
0100
1000
0100
0000
0010
0100
1000
0100
0010
0100
1203
0010
1000
0010
1000
0010
1000
0010
0001
,
0310
0100
1000
0120
0001
0100
1000
0100
1000
0100
0001
0100
1000
0100
1000
0100
0001
0100
1030
0200
0310
2001
0100
0010
,
0001
0010
0100
3201
0010
0001
0010
0001
0001
0010
0010
1000
1000
0010
0001
1320
0100
1000
0100
0001
0100
1000
0100
1000
,
0100
1000
0100
1032
0100
0010
0100
2000
3100
0010
0100
0010
0100
1000
0200
1300
0100
0010
0100
0010
0100
1000
0100
1000
,
0103
0010
0100
1200
0010
0001
0010
1000
0010
0001
0010
1000
0310
1000
0010
0102
1000
0100
0010
0100
1000
0100
0010
0000
,
0003
0000
0000
0000
0000
1000
0100
0010
0001
0010
0100
1000
,
0100
0000
0000
0000
2000
3002
0203
0320
0230
0302
0203
0320
0230
2300
3000
0000
,
0000
0000
1000
0100
0010
0001
0010
0100
1000
0010
0100
1000
,
0000
0000
0000
0000
2000
3200
2300
3200
0320
0230
0320
0230
0320
0032
0023
0032
,
0003
0000
1000
0100
0010
0001
0010
0100
0010
0001
0000
0000
,
2000
3020
0230
0302
0023
2030
3200
0302
0023
2030
3200
0302
0023
0030
0000
0000
,
0000
1000
0100
0010
0001
0010
0100
0010
1000
0100
0000
0000
,
1000
0100
1000
0001
0010
0001
1000
0100
1000
0001
0010
0001
1000
0100
1000
0001
,
0010
0000
0000
0000
0000
0000
0000
0000
2000
0100
0000
0000
0010
0000
0000
0001
0000
0000
0200
0000
0000
0310
0000
0000
0001
0000
0000
0100
0000
0000
0010
0000
0000
0001
0000
0000
0010
0000
0000
0100
0000
0000
0010
0000
3000
0000
0000
0000
,
0101
0000
0000
0010
0000
0000
0100
0000
0002
1000
0000
0000
0010
0000
0000
0100
0000
0000
1000
0000
0000
0010
0000
0000
0200
0000
0000
1300
0000
0000
0010
0000
0000
0100
0000
0000
1000
0000
0000
0010
0000
0000
0100
0000
0000
1000
0000
0000
,
0010
0000
0000
0010
0203
0000
1000
0000
0000
0010
0000
0000
0001
0000
0000
1000
0000
0000
0010
0000
0000
0001
0000
0000
1000
0000
0000
0010
0000
0000
0001
0000
0000
1000
0000
0000
0010
0000
0000
0001
0300
0000
0010
0000
0001
0100
0000
0000
,
1000
0000
0000
0010
0002
0000
0100
0000
0000
1000
0000
0000
0010
0000
0000
0100
0000
0000
1000
0000
0000
0100
0000
0000
0010
0000
0000
0100
0000
0000
1000
0000
0000
0100
0000
0000
0010
0000
0000
1000
0000
0000
0100
0000
0000
0020
0000
0000
,
1030
0000
0000
0100
2003
0000
0020
0000
0000
0031
0000
0000
0100
0000
0000
0010
0000
0000
0001
0000
0000
0100
0000
0000
0010
0000
0000
0001
0000
0000
0010
0000
0000
0100
0000
0000
0011
0000
0000
0001
3000
0000
0010
0000
0000
0100
0000
0000
,
2000
0000
0000
3100
0002
0000
0010
0000
0000
0100
0000
0000
1000
0000
0000
0010
0000
0000
0200
0000
0000
2300
0000
0000
3100
0000
0000
0010
0000
0000
0200
0000
0000
1300
0000
0000
0100
0000
0000
0010
0000
0000
0200
0000
0000
2300
0000
0000
,
3100
0000
0000
0010
0203
0000
1000
0000
0000
0010
0000
0000
0001
0000
0000
1000
0000
0000
0010
0000
0000
0001
0000
0000
2000
0000
0000
3010
0000
0000
0001
0000
0000
0010
0000
0000
1000
0000
0000
0001
0000
0000
0010
0000
0302
1000
0000
0000
,
0100
0020
0130
1000
0100
0010
0100
1000
0010
0200
2300
3010
0003
0000
0100
0000
,
1000
0100
0010
0001
0010
0100
1000
0100
,
0010
0000
0000
0001
0000
0000
0010
0000
0000
0100
0000
0000
1000
0000
0000
0100
0000
0000
0010
0000
0000
0000
1001
0000
,
0000
0000
0000
0000
1001
0000
0000
0000
0000
1000
0000
0000
0200
0000
0000
0301
0M00
0000
0020
0000
0000
1030
00M0
0000
,
0200
0000
0000
0301
0M00
0000
0020
0000
0000
0030
00M0
0000
0001
0000
0000
0020
0000
0000
0030
0000
00M0
0000
0000
0000
,
1000
0100
0010
0001
0010
0100
1000
0100
0010
0001
0010
0100
,
1000
0100
0010
0001
0000
0010
0100
1000
0100
0010
0001
0010
,
0100
1000
0000
11MM
0000
0000
M11M
0000
0000
MM11
0000
0000
,
M11M
11MM
M11M
11MM
,
M11M
0000
2000
0101
0101
0010
0000
0101
,
0101
0010
0000
0101
3101
0010
1021
1001
,
0100
1100
1132
0100
0000
1010
1010
0100
,
0103
0020
1001
1001
0100
0100
0030
1001
,
1001
0120
0000
1001
1001
0100
0000
0000
,
1001
1001
0100
0000
0000
1001
1001
0100
,
0030
1001
2101
0010
0000
0101
0101
0010
,
0020
3101
0101
1000
0000
0101
0101
1030
,
0002
0000
0000
0010
0100
1000
0100
0010
0000
0010
0100
1000
0100
0010
0000
0010
,
0100
1000
0100
0010
0100
1000
0100
0010
2103
0010
0001
0100
0020
0031
0010
0100
,
3010
0001
0120
1000
0100
1000
0100
0001
0100
1000
0100
0001
2000
3100
0031
1000
,
0100
0020
0132
1000
0100
0010
0100
1000
0100
0010
0100
1000
0100
0010
1000
0100
,
0013
2000
3120
0001
1000
0100
0001
2000
3100
0001
1000
0100
0001
1000
0100
0001
,
1000
0200
0301
1000
0200
0301
1000
0200
0301
2000
3100
0001
1000
0100
0001
2000
,
3130
0001
2010
0100
0010
0001
0020
0130
0001
0010
0100
0001
0010
0100
0001
0010
,
0102
0010
0100
0010
0100
0000
0100
0000
0100
0000
0010
0000
0010
0000
3013
0000
,
1121
0000
0000
0000
0000
0100
0000
0001
0000
0000
0000
0100
0000
0000
0100
0100
,
0000
0000
0001
0000
0000
0000
0000
0001
0000
0000
0000
0000
1000
0000
0001
0000
,
0000
0000
0100
0000
0000
0000
0100
0001
0000
1000
0002
0000
0000
0000
0003
0100
,
0000
0000
0000
0001
1000
0000
0000
0000
0000
0001
0000
0000
0001
0100
0000
0000
,
1001
0000
0000
0000
0000
0001
0000
0100
0000
0000
0131
1000
0000
0000
0000
0100
,
0000
0000
0000
0000
0000
0000
0001
0000
0010
0000
0100
0000
0010
0000
0000
1000
0000
0000
0010
0100
0000
0000
0000
0000
,
0000
0000
2000
0001
0000
0000
0000
0000
0010
0000
3100
0000
0002
0000
0000
0000
0000
0000
0000
0000
0000
1000
0003
0100
,
0000
0010
0000
0100
0002
0000
0000
0000
0000
0000
0000
0000
0000
0000
0100
0000
1000
0000
0010
0000
0103
0000
2000
0010
,
0000
0000
3001
0000
0000
0010
0002
0100
0000
0000
1000
0000
0000
0100
0203
0010
0000
0000
0000
0000
0300
0000
0000
1000
,
0000
0000
0000
0000
0001
0000
0010
0000
0102
0000
0000
0000
0000
0000
0000
0000
0000
1000
0000
0100
0003
0010
0000
0100
,
0000
0001
2000
0000
0000
0000
0000
0000
0000
0000
0100
0000
3010
0000
0000
0100
0010
0000
0002
1000
0000
0000
0100
0000
,
0003
0010
0002
1000
0000
0000
0010
0000
0003
0100
0000
0000
0012
0000
0000
0000
0000
0000
0000
0000
0000
0000
0000
0000
,
0000
0000
0000
0000
0000
1000
0003
0000
0000
0000
0010
0000
0000
0000
0000
0000
0000
1000
0000
0000
0000
0000
0102
0000
,
0000
0000
0000
0000
0010
0000
1023
0000
0000
0000
0000
0001
0000
0000
0200
0000
1030
0000
0000
0001
0000
0000
0000
0010
,
0310
0000
0100
0000
0000
0000
0010
0000
1200
0000
0000
0000
0000
0001
0000
1000
0302
0000
0000
0000
0010
0000
0100
0000
,
0003
0000
0020
0000
1000
0000
0000
0001
0230
0000
1000
0000
0000
0000
0302
0000
0000
0000
2013
0000
0000
0000
0000
0000
,
0000
0100
0000
0001
0000
0000
0000
0000
0000
0001
0000
0000
0000
0000
0001
0001
0000
0000
0000
0000
0100
0000
0000
0000
,
0000
0000
0000
0000
3001
0000
0000
0000
0000
1000
0000
0000
0100
0000
0000
0010
0000
0000
0001
0000
0000
0010
0000
0000
,
0100
1000
0100
0010
0001
0010
0200
1300
,
0110
0011
0110
1100
0110
0011
0110
1100
,
0011
0011
1100
1100
0011
0011
0110
0110
,
1100
1100
0001
0010
0100
1000
0100
0010
,
0001
0010
0100
1000
0100
0010
0001
1001
,
0110
0110
1001
1001
0110
0110
1001
1001
,
0110
0000
0110
0000
0000
0000
2020
3232
2323
3232
2323
3232
2323
3232
2323
3030
,
0000
2100
0010
0001
0010
0100
0010
0001
,
0020
0000
0230
0000
0320
0000
0031
0000
0010
3000
0102
0000
1000
0000
0100
0000
,
0010
0000
1000
0203
0010
0000
0001
0000
1000
0000
0010
0000
0001
0000
1000
0000
,
0010
0321
1000
0100
1000
0001
2000
3100
,
0001
0000
1200
0030
0001
0000
1000
0000
0010
0000
1000
0000
0001
0000
0010
0000
,
1000
0010
1000
0001
0010
1000
0001
0010
,
2000
0000
3310
0002
1000
0000
0100
0000
0010
0000
1000
0000
0100
0000
0010
0000
,
1000
0213
0001
1000
0010
0001
2000
3010
,
0001
0000
0312
0000
0000
1000
0100
0010
2000
3100
0010
0100
1000
0100
0010
2000
,
3100
0010
1000
0100
0010
1000
0200
0320
0130
1000
0203
2310
0100
0010
0001
0010
,
0100
0010
0001
3220
1030
0010
0001
0010
1000
0010
0001
0010
2000
3010
0001
0020
,
1030
0301
1020
0100
1000
0001
1000
0100
1000
0001
2000
3200
2300
3100
1000
0100
,
0001
2000
3132
0010
0100
1000
0100
0010
0100
1000
0010
0100
2000
3100
0020
1030
,
0100
0020
2030
3100
0020
0130
1000
0010
0200
1300
0200
0310
1000
0100
0010
1000
,
0200
0310
0103
1200
0002
0023
2030
3001
0010
2000
3010
0001
2000
3010
0001
0010
,
1300
0022
0130
1000
0100
0010
0100
0100
0010
0020
0130
0200
2300
3100
0010
0010
,
0100
0013
2100
0010
0001
0100
0010
0001
0020
0130
0010
0001
0010
0100
0010
0001
,
0010
0100
0100
0010
0010
0001
0001
0010
0010
3100
0120
2000
3100
0001
2000
3200
,
0301
1000
0100
0201
2030
3010
0001
1000
0010
0001
1000
0020
0031
0010
1000
0001
,
0010
1000
0322
0130
1000
0100
0010
0200
1300
0010
0100
1000
0010
0100
2000
3100
,
0010
1003
0210
1000
0010
2000
3010
0001
0010
0001
0020
1030
0010
1000
0010
0001
,
0010
0001
0010
1000
0010
1000
0010
0001
0010
0001
0010
1000
0010
1000
0010
0000
,
0000
0310
2002
3010
0100
1000
0000
0010
0100
0010
0100
1000
0100
1000
0100
0010
,
0103
2000
3120
1000
0100
0001
1000
0100
1000
0001
1000
0100
1000
0001
0100
1000
,
0100
0001
0100
1030
2100
0020
0032
0103
0010
0100
0010
0010
0100
0100
0010
0010
,
0001
0001
0000
0100
0100
0100
0100
0010
0010
0010
0010
0001
0001
0001
0001
0010
,
0010
0010
0010
0100
0100
0100
0100
0010
0010
0010
0010
0001
0001
0001
0010
0010
,
0010
0100
0100
0100
0010
0010
0010
0001
0001
0001
0010
0010
0010
0100
0100
0100
,
0010
0010
0001
0001
0010
0010
0100
0200
0310
0010
0001
0001
0010
0010
0100
0100
,
0010
0010
0001
0002
0013
0010
0100
0100
0010
0001
0010
0100
0010
0001
0010
0100
,
0010
0001
0010
0100
0000
0000
011M
0000
01M1
0000
0M11
0000
01M1
0000
011M
0000
,
01M1
0M11
01M1
011M
01M1
0M11
01M1
011M
,
01M1
0000
3000
0002
MMM0
0000
MMM0
0000
MMM0
0000
MMM0
0000
MMM0
0000
MMM0
0000
,
MMM0
MMM0
MMM0
MMM0
MMM0
MMM0
MMM0
MMM0
,
MMM0
MMM0
MMM0
MMM0
MMM0
MMM0
MMM0
MMM0
,
MMM0
MMM0
MMM0
MMM0
MMM0
MMM0
MMM0
MMM0
,
MMM0
MMM0
MMM0
MMM0
MMM0
MMM0
MMM0
MMM0
,
MMM0
MMM0
MMM0
MMM0
MMM0
MMM0
MMM0
MMM0
,
MMM0
MMM0
MMM0
MMM0
MMM0
MMM0
MMM3
0000
;
